ExtraTorrents - The Largest Bittorent System Login   |    Register
Most searched
Hot torrents
Movie Torrents
View Torrent Info: The Upside 2018 720p HDCAM-1XBET
View Torrent Info: City of Lies 2019 720p HDCAM ITA AUDIO ENG SUBS-1XBET
View Torrent Info: Escape Room 2019 CAM XviD-AVID TGx
View Torrent Info: FYRE Fraud 2019 1080p WEB h264-TBS
View Torrent Info: Uri The Surgical Strike 2019 Hindi 720p PreDvDRip x264 AAC 2 0 - xRG
View Torrent Info: Reign of the Supermen 2019 1080p WEB-DL DD5 1 H264-CMRG TGx
View Torrent Info: How to Train Your Dragon 3 2019 720p HDCAM-1XBET
View Torrent Info: Petta (2019) 720p Telugu DVDScr x264 MP3 1 4GB
View Torrent Info: Brexit (2019) 720p AMZN WEB-DL 750MB - MkvCage
View Torrent Info: Root Cause 2019 1080p WEBRip X264-INFLATE
Hot torrents
TV Torrents
View Torrent Info: Drunk History S06E02 WEB x264-TBS
View Torrent Info: NCIS New Orleans S05E12 720p HDTV x264-AVS  eztv
View Torrent Info: The Flash 2014 S05E11 HDTV x264-SVA TGx
View Torrent Info: Silent Witness S22E06 To Brighton To Brighton Part 2 720p AMZN WEB-DL DDP5 1 H 264-NTb TGx
View Torrent Info: Arrow S07E10 HDTV x264-SVA TGx
View Torrent Info: Murdoch Mysteries S12E12 WEBRip x264-TBS TGx
View Torrent Info: Silent Witness S22E05 To Brighton To Brighton Part 1 720p AMZN WEB-DL DDP5 1 H 264-NTb TGx
View Torrent Info: True Detective S03E03 HDTV x264-TURBO
View Torrent Info: Supergirl S04E10 720p HDTV x264-SVA
View Torrent Info: Outlander S04E12 WEB x264-PHOENiX TGx
ExtraTorrents > Categories > Movies torrents > HD torrents


Browse Movies torrents

The Lucky Man 2018 1080p WEB-DL DD 5.1 x264


Download torrent: The Lucky Man 2018 1080p WEB-DL DD 5.1 x264 Magnet link The Lucky Man 2018 1080p WEB-DL DD 5.1 x264 The Lucky Man 2018 1080p WEB-DL DD 5.1 x264 | if not working, try instead: Magnet Link
Info hash: E56AD4EFE9BC4E6ED30E293B51C4F3D2681D27A4
Category: Categories > Movies torrents > HD torrents
Trackers:
15    View all torrent trackers >
Health:
 seeds: 1 ,  leechers: 0
Torrent language: English
Total Size: 1.4 GB
Uploader:
Torrent added: 2018-01-21 18:34
The Lucky Man 2018 1080p WEB-DL DD 5.1 x264

Download The Lucky Man 2018 1080p WEB-DL DD 5.1 x264 torrent if not working, try downloading torrent using Download The Lucky Man 2018 1080p WEB-DL DD 5.1 x264 via Magnet Link




Torrent Description





General
Format : Matroska
Format version : Version 4 / Version 2
File size : 1.44 GiB
Duration : 1 h 36 min
Overall bit rate : 2 141 kb/s

Video
ID : 1
Format : AVC
Format/Info : Advanced Video Codec
Format profile : [email protected]
Format settings : CABAC / 4 Ref Frames
Format settings, CABAC : Yes
Format settings, ReFrames : 4 frames
Codec ID : V_MPEG4/ISO/AVC
Duration : 1 h 36 min
Bit rate : 1 883 kb/s
Nominal bit rate : 2 000 kb/s
Width : 1 912 pixels
Height : 1 072 pixels
Display aspect ratio : 16:9
Frame rate mode : Constant
Frame rate : 23.976 (24000/1001) FPS
Color space : YUV
Chroma subsampling : 4:2:0
Bit depth : 8 bits
Scan type : Progressive
Bits/(Pixel*Frame) : 0.038
Stream size : 1.27 GiB (88%)
Writing library : x264 core 148 r2708 86b7198
Default : Yes
Forced : No

Audio
ID : 2
Format : AC-3
Format/Info : Audio Coding 3
Codec ID : A_AC3
Duration : 1 h 36 min
Bit rate mode : Constant
Bit rate : 256 kb/s
Channel(s) : 6 channels
Channel positions : Front: L C R, Side: L R, LFE
Sampling rate : 48.0 kHz
Frame rate : 31.250 FPS (1536 SPF)
Bit depth : 16 bits
Compression mode : Lossy
Stream size : 176 MiB (12%)
Language : English
Service kind : Complete Main
Default : Yes
Forced : No












Download The Lucky Man 2018 1080p WEB-DL DD 5.1 x264 torrent




Home - Browse Torrents ExtraTorrents is in compliance with copyrights
2006-2018 ExtraTorrents