ExtraTorrents - The Largest Bittorent System Login   |    Register
Most searched
Hot torrents
Movie Torrents
View Torrent Info: The Upside 2018 720p HDCAM-1XBET
View Torrent Info: City of Lies 2019 720p HDCAM ITA AUDIO ENG SUBS-1XBET
View Torrent Info: Escape Room 2019 CAM XviD-AVID TGx
View Torrent Info: FYRE Fraud 2019 1080p WEB h264-TBS
View Torrent Info: Uri The Surgical Strike 2019 Hindi 720p PreDvDRip x264 AAC 2 0 - xRG
View Torrent Info: Reign of the Supermen 2019 1080p WEB-DL DD5 1 H264-CMRG TGx
View Torrent Info: How to Train Your Dragon 3 2019 720p HDCAM-1XBET
View Torrent Info: Petta (2019) 720p Telugu DVDScr x264 MP3 1 4GB
View Torrent Info: Brexit (2019) 720p AMZN WEB-DL 750MB - MkvCage
View Torrent Info: Root Cause 2019 1080p WEBRip X264-INFLATE
Hot torrents
TV Torrents
View Torrent Info: Drunk History S06E02 WEB x264-TBS
View Torrent Info: NCIS New Orleans S05E12 720p HDTV x264-AVS  eztv
View Torrent Info: The Flash 2014 S05E11 HDTV x264-SVA TGx
View Torrent Info: Silent Witness S22E06 To Brighton To Brighton Part 2 720p AMZN WEB-DL DDP5 1 H 264-NTb TGx
View Torrent Info: Arrow S07E10 HDTV x264-SVA TGx
View Torrent Info: Murdoch Mysteries S12E12 WEBRip x264-TBS TGx
View Torrent Info: Silent Witness S22E05 To Brighton To Brighton Part 1 720p AMZN WEB-DL DDP5 1 H 264-NTb TGx
View Torrent Info: True Detective S03E03 HDTV x264-TURBO
View Torrent Info: Supergirl S04E10 720p HDTV x264-SVA
View Torrent Info: Outlander S04E12 WEB x264-PHOENiX TGx
ExtraTorrents > Categories > Movies torrents > HD torrents


Browse Movies torrents

When.We.First.Met.2018.1080p.NF.WEBRip.DD5.1.x264-SiGMA[rarbg]


Download torrent: When.We.First.Met.2018.1080p.NF.WEBRip.DD5.1.x264-SiGMA[rarbg] Magnet link When.We.First.Met.2018.1080p.NF.WEBRip.DD5.1.x264-SiGMA[rarbg] When.We.First.Met.2018.1080p.NF.WEBRip.DD5.1.x264-SiGMA[rarbg] | if not working, try instead: Magnet Link
Info hash: C884F6DF556C43FC63FD9267F0E7EBD8A88B6CF8
Category: Categories > Movies torrents > HD torrents
Trackers:
3    View all torrent trackers >
Health:
 seeds: 12 ,  leechers: 0
Torrent language: English
Total Size: 3.8 GB
Uploader:
Torrent added: 2018-02-20 18:49
When.We.First.Met.2018.1080p.NF.WEBRip.DD5.1.x264-SiGMA[rarbg]

Download When.We.First.Met.2018.1080p.NF.WEBRip.DD5.1.x264-SiGMA[rarbg] torrent if not working, try downloading torrent using Download When.We.First.Met.2018.1080p.NF.WEBRip.DD5.1.x264-SiGMA[rarbg] via Magnet Link




Torrent Description



Noah spends the perfect first night with Avery| the girl of his dreams| but gets relegated to the friend zone. He spends the next three years wondering what went wrong - until he gets the unexpected chance to travel back in time and alter that night - and his fate - over and over again.

IMDB Rating: 7.9/10 from 9 users Updated : 2018-02-09
Genres: Comedy
Actors: Alexandra Daddario , Robbie Amell , Adam Devine , Shelley Hennig , Noureen DeWulf , Andrew Bachelor , Tony Cavalero , Tenea Intriago , Chris Wylde , Dean J. West , Bryan Michael Hall , Martin Bats Bradford , Michael Scott , Talbott Lin , Ron M Patterson
Director: Ari Sandel

Video
ID                                       : 1
Format                                   : AVC
Format/Info                              : Advanced Video Codec
Format profile                           : [email protected]
Format settings                          : CABAC / 3 Ref Frames
Format settings, CABAC                   : Yes
Format settings, ReFrames                : 3 frames
Codec ID                                 : V_MPEG4/ISO/AVC
Duration                                 : 1 h 37 min
Bit rate mode                            : Variable
Bit rate                                 : 5 360 kb/s
Maximum bit rate                         : 8 040 kb/s
Width                                    : 1 920 pixels
Height                                   : 1 080 pixels
Display aspect ratio                     : 16:9
Frame rate mode                          : Constant
Frame rate                               : 23.976 (24000/1001) FPS

Audio
ID                                       : 2
Format                                   : AC-3
Format/Info                              : Audio Coding 3
Codec ID                                 : A_AC3
Duration                                 : 1 h 37 min
Bit rate mode                            : Constant
Bit rate                                 : 384 kb/s
Channel(s)                               : 6 channels
Channel positions                        : Front: L C R, Side: L R, LFE
Sampling rate                            : 48.0 kHz
Frame rate                               : 31.250 FPS (1536 SPF)
Bit depth                                : 16 bits
Compression mode                         : Lossy
Stream size                              : 267 MiB (7%)
Language                                 : English
Service kind                             : Complete Main
Default                                  : Yes
Forced                                   : No

Text #1
ID                                       : 3
Format                                   : UTF-8
Codec ID                                 : S_TEXT/UTF8
Codec ID/Info                            : UTF-8 Plain Text
Duration                                 : 55 s 805 ms
Bit rate                                 : 58 b/s
Count of elements                        : 12
Stream size                              : 406 Bytes (0%)
Title                                    : Forced
Language                                 : English
Default                                  : Yes
Forced                                   : Yes

Text #2
ID                                       : 4
Format                                   : UTF-8
Codec ID                                 : S_TEXT/UTF8
Codec ID/Info                            : UTF-8 Plain Text
Duration                                 : 1 h 32 min
Bit rate                                 : 98 b/s
Count of elements                        : 1919
Stream size                              : 66.9 KiB (0%)
Title                                    : SDH
Language                                 : English
Default                                  : No
Forced                                   : No

Text #3
ID                                       : 5
Format                                   : UTF-8
Codec ID                                 : S_TEXT/UTF8
Codec ID/Info                            : UTF-8 Plain Text
Duration                                 : 1 h 36 min
Bit rate                                 : 72 b/s
Count of elements                        : 1628
Stream size                              : 51.1 KiB (0%)
Language                                 : Spanish
Default                                  : No
Forced                                   : No

Text #4
ID                                       : 6
Format                                   : UTF-8
Codec ID                                 : S_TEXT/UTF8
Codec ID/Info                            : UTF-8 Plain Text
Duration                                 : 1 h 36 min
Bit rate                                 : 69 b/s
Count of elements                        : 1626
Stream size                              : 48.9 KiB (0%)
Language                                 : French
Default                                  : No
Forced                                   : No

Text #5
ID                                       : 7
Format                                   : UTF-8
Codec ID                                 : S_TEXT/UTF8
Codec ID/Info                            : UTF-8 Plain Text
Duration                                 : 1 h 36 min
Bit rate                                 : 68 b/s
Count of elements                        : 1591
Stream size                              : 48.2 KiB (0%)
Language                                 : German
Default                                  : No
Forced                                   : No

Text #6
ID                                       : 8
Format                                   : UTF-8
Codec ID                                 : S_TEXT/UTF8
Codec ID/Info                            : UTF-8 Plain Text
Duration                                 : 1 h 36 min
Bit rate                                 : 72 b/s
Count of elements                        : 1596
Stream size                              : 50.9 KiB (0%)
Language                                 : Italian
Default                                  : No
Forced                                   : No




Download When.We.First.Met.2018.1080p.NF.WEBRip.DD5.1.x264-SiGMA[rarbg] torrent




Home - Browse Torrents ExtraTorrents is in compliance with copyrights
2006-2018 ExtraTorrents